• WANTED: Happy members who like to discuss audio and other topics related to our interest. Desire to learn and share knowledge of science required as is 20 years of participation in forums (not all true). Come here to have fun, be ready to be teased and not take online life too seriously. We now measure and review equipment for free! Click here for details.

What are we listening to right now..

maty

Major Contributor
Joined
Dec 12, 2017
Messages
3,846
Likes
2,337
Location
Tarragona (Spain)
Randy Newman - Lonely At The Top The Studio Albums 1968-1977, Vinyl, Nonesuch Records 2017 Box Set, US

https://www.discogs.com/Randy-Newman-Lonely-At-The-Top-The-Studio-Albums-1968-77/release/10176556
https://www.amazon.com/Lonely-At-Top-Studio-Albums/dp/B06XV26KBG

Good Old Boys (1974)



DR Peak RMS Duration Track
--------------------------------------------------------------------------------
DR11 -1.51 dB -16.58 dB 3:09 01-Rednecks
DR11 -2.51 dB -17.33 dB 2:47 02-Birmingham
DR12 -4.88 dB -21.56 dB 3:10 03-Marie
DR12 -1.27 dB -15.31 dB 2:47 04-Mr. President (Have Pity On The Working Man)
DR11 -0.44 dB -15.21 dB 2:35 05-Guilty
DR12 -1.56 dB -17.18 dB 2:57 06-Louisiana 1927
DR12 -5.72 dB -20.84 dB 1:02 07-Every Man A King
DR12 -1.20 dB -17.16 dB 2:45 08-Kingfish
DR11 -2.26 dB -17.18 dB 3:12 09-Naked Man
DR12 -2.34 dB -18.06 dB 3:10 10-A Wedding In Cherokee County
DR12 -2.50 dB -17.01 dB 3:23 11-Back On My Feet Again
DR12 -4.41 dB -19.47 dB 2:55 12-Rollin'
--------------------------------------------------------------------------------

Number of tracks: 12
Official DR value: DR12
 
Last edited:

maty

Major Contributor
Joined
Dec 12, 2017
Messages
3,846
Likes
2,337
Location
Tarragona (Spain)
Randy Newman - Lonely At The Top The Studio Albums 1968-1977, Vinyl, Nonesuch Records 2017 Box Set, US

https://www.discogs.com/Randy-Newman-Lonely-At-The-Top-The-Studio-Albums-1968-77/release/10176556
https://www.amazon.com/Lonely-At-Top-Studio-Albums/dp/B06XV26KBG

Sail Away (1972)



DR Peak RMS Duration Track
--------------------------------------------------------------------------------
DR10 -1.92 dB -16.60 dB 2:52 01-Sail Away
DR10 -2.06 dB -15.64 dB 2:34 02-It's Lonely At The Top
DR11 -3.78 dB -17.95 dB 1:56 03-He Gives Us All His Love
DR12 -0.21 dB -15.78 dB 3:02 04-Last Night I Had A Dream
DR12 -2.15 dB -16.55 dB 2:05 05-Simon Smith And The Amazing Dancing Bear
DR11 -2.23 dB -19.48 dB 2:45 06-Old Man
DR11 -1.59 dB -16.32 dB 2:01 07-Political Science
DR11 -2.59 dB -18.42 dB 2:34 08-Burn On
DR11 -1.67 dB -14.83 dB 1:55 09-Memo To My Son
DR13 -3.88 dB -20.42 dB 1:51 10-Dayton, Ohio 1903
DR11 -1.55 dB -14.56 dB 3:17 11-You Can Leave Your Hat On
DR14 -0.13 dB -19.19 dB 3:39 12-God's Song (That's Why I Love Mankind)
--------------------------------------------------------------------------------

Number of tracks: 12
Official DR value: DR12
 

maty

Major Contributor
Joined
Dec 12, 2017
Messages
3,846
Likes
2,337
Location
Tarragona (Spain)
Randy Newman - Lonely At The Top The Studio Albums 1968-1977, Vinyl, Nonesuch Records 2017 Box Set, US

https://www.discogs.com/Randy-Newman-Lonely-At-The-Top-The-Studio-Albums-1968-77/release/10176556
https://www.amazon.com/Lonely-At-Top-Studio-Albums/dp/B06XV26KBG

Randy Newman (1968)



DR Peak RMS Duration Track
--------------------------------------------------------------------------------
DR11 -0.71 dB -18.12 dB 3:23 01-Love Story (You And Me)
DR11 -0.56 dB -15.51 dB 2:06 02-Bet No One Ever Hurt This Bad
DR12 -0.50 dB -18.92 dB 2:24 03-Living Without You
DR11 -4.08 dB -19.79 dB 2:14 04-So Long Dad
DR11 -1.17 dB -17.10 dB 3:08 05-I Think He's Hiding
DR11 -1.52 dB -18.47 dB 2:29 06-Linda
DR11 -1.14 dB -15.28 dB 2:00 07-Laughing Boy
DR12 -0.43 dB -21.30 dB 2:40 08-Cowboy
DR11 -1.21 dB -15.50 dB 1:52 09-The Beehive State
DR12 -2.49 dB -21.65 dB 2:59 10-I Think It's Going To Rain Today
DR10 -1.72 dB -16.64 dB 2:51 11-Davy The Fat Boy
--------------------------------------------------------------------------------

Number of tracks: 11
Official DR value: DR11
 

BillG

Major Contributor
Joined
Sep 12, 2018
Messages
1,450
Likes
1,702
Location
Auckland, New Zealand
Let me be your favorite nightmare
Close your eyes and I'll be right there
While, open, all, over, again
See me, touch me, give me, want me
Feed me, fuck me, trust me, love me
This whole world is cold and ugly
What we are is low and lovely
I am the most beautiful boogie man... o_O

 

maty

Major Contributor
Joined
Dec 12, 2017
Messages
3,846
Likes
2,337
Location
Tarragona (Spain)
Stravinsky, CBC SO - Stravinsky Conducts The CBC Symphony Orchestra - Symphony Of Psalms / Symphony In C (1964), Vinyl, Columbia Masterworks, US

https://www.discogs.com/Stravinsky-...to-Elmer-Iseler-Symphony-Of-P/release/3378451



DR Peak RMS Duration Track
--------------------------------------------------------------------------------
DR10 -0.51 dB -15.32 dB 3:23 01-Symphony Of Psalms (Revised Version), Part I
DR11 -0.86 dB -18.35 dB 6:16 02-Symphony Of Psalms (Revised Version), Part II
DR14 -0.08 dB -18.76 dB 12:01 03-Symphony Of Psalms (Revised Version), Part III
DR15 -0.09 dB -19.72 dB 9:29 04-Symphony In C, I - Moderato Alla Breva
DR15 -2.71 dB -23.33 dB 10:21 05-Symphony In C, II - Larghetto Concertante / III - Allegretto
DR14 -2.13 dB -21.43 dB 7:21 06-Symphony In C, IV - Largo
--------------------------------------------------------------------------------

Number of tracks: 6
Official DR value: DR13


CD, 1988

https://www.amazon.com/Stravinsky-Conducts-Symphony-Psalms-Movements/dp/B0000026GK
 

maty

Major Contributor
Joined
Dec 12, 2017
Messages
3,846
Likes
2,337
Location
Tarragona (Spain)
The Miles Davis Quintet - Cookin' With The Miles Davis Quintet (1957), CD, Prestige Remastered 1985, Japan

https://www.discogs.com/The-Miles-Davis-Quintet-Cookin-With-The-Miles-Davis-Quintet/release/2305697



DR Peak RMS Duration Track
--------------------------------------------------------------------------------
DR15 -0.54 dB -18.85 dB 6:02 01-My Funny Valentine
DR13 -0.18 dB -16.56 dB 9:59 02-Blues by Five
DR10 -0.36 dB -12.59 dB 4:27 03-Airegin
DR12 -1.18 dB -16.22 dB 13:10 04-Medley - Tune Up - When Lights Are Low
--------------------------------------------------------------------------------

Number of tracks: 4
Official DR value: DR12


CD, 2007 Remastered

https://www.amazon.com/Cookin-Miles-Davis-Quintet-Remasters/dp/B000KP62TS
 
Top Bottom