• WANTED: Happy members who like to discuss audio and other topics related to our interest. Desire to learn and share knowledge of science required. There are daily reviews of audio hardware and expert members to help answer your questions. Click here to have your audio equipment measured for free!

What are we listening to right now..

Cote Dazur

Addicted to Fun and Learning
Joined
Feb 25, 2022
Messages
616
Likes
743
Location
Canada


The long awaited debut album from Canadian electric bassist-composer Marc Decho features an all star cast of Canadian jazz heavyweights. GRAMMY-nominated and Juno Award-winning alto saxophonist Luis Deniz (rinsethealgorithm, Hilario Duran, Roberto Occhipinti, David Vireilles). Pianist, composer and producer Jeremy Ledbetter (David Rudder, Juno Award-winning Jeremy Ledbetter Trio, Canefire, Andy Narrell, Eliana Cuevas) and GRAMMY, Latin Grammy and Juno nominated drummer and producer Marito Marques (Jorge Pardo, Gregoire Maret, Mino Cinelu, Munir Hossn).

Mixing and mastering by 2 time GRAMMY-Award winning engineer Helik Hadar (Quincy Jones, Herbie Hancock, Joni Mitchell, Wayne Shorter, Mike Stern).
 

maty

Major Contributor
Joined
Dec 12, 2017
Messages
4,562
Likes
3,125
Location
Tarragona (Spain)
Dong Hyek Lim - Rachmaninov - Piano Concerto No. 2, Symphonic Dances (2019) {24-192} [FLAC]

front - Dong Hyek Lim - Rachmaninov - Piano Concerto No. 2, Symphonic Dances.png


DR Peak RMS Duration Track
--------------------------------------------------------------------------------
DR10 -0.06 dB -15.03 dB 11:36 01-Rachmaninov: Piano Concerto No. 2 in C Minor, Op. 18: I. Moderato
DR13 -0.45 dB -19.66 dB 11:55 02-Rachmaninov: Piano Concerto No. 2 in C Minor, Op. 18: II. Adagio sostenuto
DR9 -0.05 dB -14.95 dB 12:38 03-Rachmaninov: Piano Concerto No. 2 in C Minor, Op. 18: III. Allegro scherzando
DR13 -0.20 dB -17.54 dB 11:21 04-Rachmaninov: Symphonic Dances, Op. 45: I. Non allegro
DR13 -0.20 dB -17.66 dB 8:47 05-Rachmaninov: Symphonic Dances, Op. 45: II. Andante. Tempo di valse
DR12 -0.20 dB -15.85 dB 12:32 06-Rachmaninov: Symphonic Dances, Op. 45: III. Lento assai - Allegro vivace - Lento assai
--------------------------------------------------------------------------------

Number of tracks: 6
Official DR value: DR12

Better with PKHarmonic v1.3


 

Attachments

  • JRMC-DSP-PKHarmonic.png
    JRMC-DSP-PKHarmonic.png
    65.3 KB · Views: 20
Last edited:

Mike710

Active Member
Joined
Nov 12, 2023
Messages
124
Likes
75
Location
Airborne
 

maty

Major Contributor
Joined
Dec 12, 2017
Messages
4,562
Likes
3,125
Location
Tarragona (Spain)
Reiner, Chicago SO - Bartok - Concerto for Orchestra (1956) Vinyl x2, The Franklin Mint Recording Society 1981, US

box-front-The 100 Greatest Recordings Of All Time.png


label-a.png


label-b.png


DR Peak RMS Duration Track
--------------------------------------------------------------------------------
DR13 -0.06 dB -19.19 dB 9:59 01-Concerto For Orchestra - I. Introduzione; Andante non troppo; Allegro vivace
DR14 -5.78 dB -24.88 dB 6:00 02-Concerto For Orchestra - II. Giocoso delle coppie; Allegretto scherzando
DR15 -0.07 dB -20.58 dB 7:59 03-Concerto For Orchestra - III. Elegia: Andante non troppo
DR13 -2.01 dB -22.49 dB 4:17 04-Concerto For Orchestra - IV. Intermezzo interrolto; Allegretto
DR13 -0.06 dB -17.63 dB 9:03 05-Concerto For Orchestra - V. Finale: Pesante; Presto
--------------------------------------------------------------------------------

Number of tracks: 5
Official DR value: DR13

 

maty

Major Contributor
Joined
Dec 12, 2017
Messages
4,562
Likes
3,125
Location
Tarragona (Spain)
Phil Keaggy - The Wind And The Wheat (1987) Vinyl, Maranatha! Music, UK

front - Phil Keaggy - The Wind And The Wheat.png


DR Peak RMS Duration Track
--------------------------------------------------------------------------------
DR13 -0.44 dB -15.61 dB 5:23 01-March Of The Clouds
DR14 -0.48 dB -17.47 dB 5:31 02-Paradise Dreams
DR13 -0.05 dB -16.80 dB 4:31 03-The Wind And The Wheat
DR13 -1.24 dB -19.00 dB 6:33 04-Where Travellers Meet
DR12 -1.64 dB -16.96 dB 3:05 05-From Shore To Shore
DR14 -0.12 dB -16.03 dB 4:21 06-Prayer
DR15 -2.26 dB -20.64 dB 4:59 07-The Mission
DR13 -0.29 dB -16.34 dB 4:30 08-The Promise
DR12 -1.85 dB -19.07 dB 6:01 09-The Reunion
DR13 -1.51 dB -18.60 dB 5:27 10-I Love You, Lord
--------------------------------------------------------------------------------

Number of tracks: 10
Official DR value: DR13


 

AudioBoy

Member
Joined
Jan 23, 2023
Messages
66
Likes
33

Takagi & Ketra - L'esercito del selfie ft. Lorenzo Fragola, Arisa​


Paramore - Hard Times​


Sophie Ellis-Bextor - Lost in the Sunshine​

 

Multicore

Major Contributor
Joined
Dec 6, 2021
Messages
1,589
Likes
1,652

The NID Tapes: Electronic Music from India 1969-1972​

Find it in your streaming app or here's a youtube playlist of the album.

1701355894947.png


And an article with some background info on India's Moog

 

Mike710

Active Member
Joined
Nov 12, 2023
Messages
124
Likes
75
Location
Airborne
Some of you might remember these lady's from some years ago on YT...

Before

Now

Cheers
 

Mike710

Active Member
Joined
Nov 12, 2023
Messages
124
Likes
75
Location
Airborne
 

Mike710

Active Member
Joined
Nov 12, 2023
Messages
124
Likes
75
Location
Airborne
 

maty

Major Contributor
Joined
Dec 12, 2017
Messages
4,562
Likes
3,125
Location
Tarragona (Spain)
Barocke Trompetenkonzerte - Reinhold Friedrich (1981) Vinyl, Jeton, Direct To Disc, Germany

front - Barocke Trompetenkonzerte - Reinhold Friedrich.png


DR Peak RMS Filename
----------------------------------------------------------------------------------------------

DR12 -2.26 dB -18.84 dB A1 Biber - Sonata X a cinque
DR12 -0.30 dB -16.83 dB A2 Torelli - Concerto D-Dur - Allegro
DR12 -8.08 dB -23.96 dB A3 Torelli - Concerto D-Dur - Adagio-Presto-Adagio
DR13 -3.42 dB -20.32 dB A4 Torelli - Concerto D-Dur - Allegro
DR11 -0.90 dB -15.38 dB B1 Corelli - Sonata D-Dur - Grave
DR13 -0.77 dB -17.44 dB B2 Corelli - Sonata D-Dur - Allegro
DR12 -8.28 dB -24.09 dB B3 Corelli - Sonata D-Dur - Grave
DR13 -1.40 dB -16.70 dB B4 Corelli - Sonata D-Dur - Allegro
DR14 -0.64 dB -18.22 dB B5 Corelli - Sonata D-Dur - Allegro
DR13 -1.28 dB -18.12 dB B6 Grossi - Sonata Decima Op.3 - Vivace
DR11 -2.14 dB -18.47 dB B7 Grossi - Sonata Decima Op.3 - Adagio
DR11 -4.88 dB -19.37 dB B8 Grossi - Sonata Decima Op.3 - Grave
DR13 -0.80 dB -17.25 dB B9 Grossi - Sonata Decima Op.3 - Presto
----------------------------------------------------------------------------------------------

Number of files: 13
Official DR value: DR12


 

ryanosaur

Major Contributor
Joined
Mar 17, 2022
Messages
1,382
Likes
2,166
Location
Cali
RIP, Shane.


That, and a few pours of Teeling ('cos that's what I had close to hand).
 

maty

Major Contributor
Joined
Dec 12, 2017
Messages
4,562
Likes
3,125
Location
Tarragona (Spain)
Paul Desmond with Strings / Desmond Blue (1962) Vinyl, RCA, US

front - Paul Desmond with Strings - Desmond Blue.png


DR Peak RMS Duration Track
--------------------------------------------------------------------------------
DR10 -0.09 dB -14.56 dB 3:53 01-My Funny Valentine
DR10 -1.11 dB -13.75 dB 3:40 02-Desmond Blue
DR11 0.00 dB -13.30 dB 4:06 03-Then I'll Be Tired of You
DR10 0.00 dB -13.24 dB 4:41 04-I've Got You Under My Skin
DR9 -0.32 dB -12.47 dB 4:10 05-Late Lament
DR9 -0.20 dB -13.55 dB 3:52 06-I Should Care
DR10 -1.57 dB -13.37 dB 4:14 07-Like Someone in Love
DR11 -0.27 dB -16.40 dB 3:52 08-Ill Wind
DR10 -2.87 dB -15.74 dB 4:52 09-Body and Soul
--------------------------------------------------------------------------------

Number of tracks: 9
Official DR value: DR10


 
Top Bottom