• WANTED: Happy members who like to discuss audio and other topics related to our interest. Desire to learn and share knowledge of science required. There are daily reviews of audio hardware and expert members to help answer your questions. Click here to have your audio equipment measured for free!

What are we listening to right now..

maty

Major Contributor
Joined
Dec 12, 2017
Messages
4,563
Likes
3,125
Location
Tarragona (Spain)
Nino Bravo - 30 Grandes Exitos Originales (1990), CD, Polygram, Spain

https://www.discogs.com/Nino-Bravo-30-Grandes-Exitos-Originales/release/2177215

Nino-Bravo-30-grandes-exitos-cover.jpg


DR Peak RMS Duration Track
--------------------------------------------------------------------------------
DR11 -1.15 dB -14.69 dB 4:27 01-Mi tierra
DR10 -1.47 dB -14.54 dB 2:47 02-Mi gran amor
DR12 -1.81 dB -15.63 dB 3:22 03-Puerta de amor
DR11 -0.64 dB -16.11 dB 3:16 04-Esa será mi casa
DR12 -0.74 dB -15.93 dB 2:31 05-Carolina
DR10 -1.75 dB -16.16 dB 2:50 06-Mi querida Mamá
DR10 -2.94 dB -14.30 dB 2:53 07-Mis noches sin ti
DR11 -1.21 dB -16.69 dB 2:41 08-Flor de invernadero
DR11 -0.99 dB -14.76 dB 2:54 09-Te quiero, te quiero
DR10 -2.22 dB -15.47 dB 3:08 10-Noelia
DR10 -1.28 dB -14.11 dB 3:12 11-Te acuerdas, María
DR10 -1.24 dB -15.60 dB 3:31 12-Laura
DR11 -1.21 dB -14.79 dB 3:39 13-Monalisa
DR11 -0.91 dB -13.72 dB 3:13 14-Elizabeth
DR12 -0.40 dB -14.79 dB 3:10 15-Aquel amor
DR10 -2.29 dB -15.34 dB 2:39 16-En el viento
--------------------------------------------------------------------------------

Number of tracks: 16
Official DR value: DR11


DR Peak RMS Duration Track
--------------------------------------------------------------------------------
DR11 -1.12 dB -14.67 dB 4:33 01-Un Beso y Una Flor
DR11 -0.67 dB -14.49 dB 3:33 02-America, America
DR11 -0.48 dB -13.76 dB 3:30 03-El Amor
DR10 -0.70 dB -13.75 dB 3:08 04-Como Todos
DR10 -0.77 dB -14.16 dB 2:51 05-No Debo Pensar En Ti
DR11 -0.54 dB -13.45 dB 3:31 06-Por Fin Mañana
DR11 -0.53 dB -14.52 dB 3:07 07-El Adios
DR11 -1.55 dB -15.09 dB 4:12 08-Libre
DR11 -0.74 dB -15.85 dB 3:55 09-Cartas Amarillas
DR13 -0.53 dB -15.62 dB 4:07 10-Vivir
DR11 -1.35 dB -13.64 dB 2:37 11-Voy Buscando
DR11 -0.56 dB -13.63 dB 2:34 12-Tu Cambiaras
DR12 -0.62 dB -15.63 dB 3:45 13-El Tren Se Va
DR11 -1.26 dB -14.45 dB 3:03 14-Nuestro Hogar Sera El Mundo
--------------------------------------------------------------------------------

Number of tracks: 14
Official DR value: DR11

CD

https://www.amazon.es/Grandes-Exitos-Originales-Nino-Bravo/dp/B00PO51ABE
 

maty

Major Contributor
Joined
Dec 12, 2017
Messages
4,563
Likes
3,125
Location
Tarragona (Spain)
[IMG, only link] http://maty.galeon.com/WP-imagenes/...ndes-exitos-originales-rip-flac0-1024kbps.png

Libre
Nino Bravo

Tiene casi veinte años y ya está
Cansado de soñar,
Pero tras la frontera está su hogar,
Su mundo, su ciudad.
Piensa que la alambrada sólo es
Un trozo de metal,
Algo que nunca puede detener
Sus ansias de volar.
Libre,
Como el sol cuando amanece,
Yo soy libre como el mar
Libre,
Como el ave que escapó de su prisión
Y puede, al fin, volar
Libre,
Como el viento que recoge mi lamento
Y mi pesar,
Camino sin cesar
Detrás de la verdad
Y sabré lo que es al fin, la libertad.

Con su amor por banderas se marchó
Cantando una canción,
Marchaba tan feliz que no escuchó
La voz que le llamó,
Y tendido en el suelo se quedó
Sonriendo y sin hablar,
Sobre su pecho flores carmesí,
Brotaban sin cesar
Libre,
Como el sol cuando amanece,
Yo soy libre como el mar
Libre,
Como el ave que escapó de su prisión
Y puede, al fin, volar
Libre,
Como el viento que recoge mi lamento
Y mi pesar,
Camino sin cesar
Detrás de la verdad
Y sabré lo que es al fin, la libertad.
Libre,
Como el sol cuando amanece,
Yo soy libre como el mar
Libre,
Como el ave que escapó de su prisión
Y puede, al fin, volar
Libre,
Como el viento que recoge mi lamento
Y mi pesar,
Camino sin cesar
Detrás de la verdad
Y sabré lo que es al fin, la libertad.
 

maty

Major Contributor
Joined
Dec 12, 2017
Messages
4,563
Likes
3,125
Location
Tarragona (Spain)
Mari Nakamoto - Unforgettable (1973), SACD 2006, TBM-21, Japan

https://www.discogs.com/Mari-Nakamoto-Unforgettable/release/3455777

R-3455777-1331058880.jpeg.jpg


DR Peak RMS Duration Track
--------------------------------------------------------------------------------
DR13 -0.13 dB -18.34 dB 3:11 01-Time After Time
DR13 -3.97 dB -22.83 dB 4:08 02-But Beautiful
DR13 -1.05 dB -20.66 dB 5:37 03-Blue Prelude
DR13 -2.47 dB -18.99 dB 5:03 04-Sneakin' Up On You
DR12 -3.32 dB -18.63 dB 4:24 05-Cheek To Cheek
DR12 -2.74 dB -19.58 dB 4:08 06-Unforgettable
DR15 -1.53 dB -20.30 dB 4:45 07-Please Send Me Someone To Love
DR14 -1.79 dB -19.36 dB 5:00 08-I've Got You Under My Skin
DR14 -0.22 dB -19.24 dB 5:43 09-After You've Gone
--------------------------------------------------------------------------------

Number of tracks: 9
Official DR value: DR13

http://www.sa-cd.net/showreviews/4252
 

maty

Major Contributor
Joined
Dec 12, 2017
Messages
4,563
Likes
3,125
Location
Tarragona (Spain)
The Cars - Shake It Up (1981), CD, Elektra, Germany

https://www.discogs.com/The-Cars-Shake-It-Up/release/9339186

R-9339186-1478875481-6329.jpeg.jpg


DR Peak RMS Duration Track
--------------------------------------------------------------------------------
DR12 -1.52 dB -15.79 dB 3:31 01-Since You're Gone
DR12 -1.87 dB -16.04 dB 3:32 02-Shake It Up
DR12 -2.35 dB -16.81 dB 4:10 03-I'm Not the One
DR13 -3.09 dB -18.62 dB 4:25 04-Victim of Love
DR15 -1.82 dB -17.65 dB 4:57 05-Cruiser
DR14 -1.91 dB -18.58 dB 5:40 06-A Dream Away
DR13 -2.36 dB -18.42 dB 4:27 07-This Could Be Love
DR12 -2.04 dB -16.59 dB 4:56 08-Think It Over
DR13 -1.60 dB -17.69 dB 5:03 09-Maybe Baby
--------------------------------------------------------------------------------

Number of tracks: 9
Official DR value: DR13

******* ******** *********

Note: like the others CD I posted here, now a new rip with foobar2000 (EAC before, FLAC 4 1024 and older FLAC library). FLAC 0 and 1024 kbps.

reference libFLAC 1.3.2 20170101.

Btw, again, the sound with JRMC 64 bits (Kernel Streaming) is much better than foobar2000 (32 bits) with KS too.
 
Last edited:

maty

Major Contributor
Joined
Dec 12, 2017
Messages
4,563
Likes
3,125
Location
Tarragona (Spain)
A very good compilation, with original tracks.

Lo Mejor del Soul (1992), CD x2, Arcade, Spain

https://www.discogs.com/Various-Lo-Mejor-Del-Soul/release/5568088

R-5568088-1396804207-1711.jpeg.jpg


DR Peak RMS Duration Track
--------------------------------------------------------------------------------
DR13 -0.45 dB -17.34 dB 2:39 01-Otis Redding
DR12 -1.64 dB -17.83 dB 2:52 02-Ben E. King
DR9 -2.28 dB -13.11 dB 2:36 03-The Platters
DR11 -1.81 dB -16.06 dB 2:55 04-Percy Sledge
DR11 -0.84 dB -16.14 dB 2:16 05-Louis Armstrong
DR11 -2.48 dB -16.63 dB 2:36 06-The Drifters
DR14 -1.93 dB -17.46 dB 2:26 07-Sam & Dave
DR11 -3.20 dB -15.91 dB 2:43 08-Jerry Butler
DR10 -3.42 dB -15.51 dB 2:43 09-Sam Cooke
DR8 -4.47 dB -15.11 dB 3:36 10-The Righteous Brothers
DR12 -1.11 dB -15.08 dB 2:59 11-I've Got to Do a Little Bit Better - Joe Tex
DR14 -0.75 dB -18.17 dB 3:58 12-Brook Benton
DR11 -2.61 dB -14.67 dB 2:30 13-Gene Chandler
DR11 -1.19 dB -15.35 dB 2:29 14-Paul & Paula
DR11 -0.98 dB -15.92 dB 3:35 15-Nina Simone
--------------------------------------------------------------------------------

Number of tracks: 15
Official DR value: DR11


DR Peak RMS Duration Track
--------------------------------------------------------------------------------
DR11 -3.79 dB -16.47 dB 2:58 01-Stand Bay Me
DR11 -1.96 dB -16.12 dB 3:16 02-Warm And Tender Love
DR13 -1.27 dB -17.49 dB 2:31 03-This Arms Of Mine
DR11 -1.10 dB -14.87 dB 2:52 04-Oh Wat A Night
DR11 -3.31 dB -16.81 dB 3:22 05-If You Dont Know Me By Now
DR10 -2.54 dB -15.39 dB 2:49 06-Blue Velvet
DR10 -3.75 dB -14.77 dB 2:37 07-The Great Pretender
DR10 -3.51 dB -16.47 dB 2:02 08-Every Beat On My Heart
DR12 -3.09 dB -17.52 dB 3:20 09-Love. The Time Is Now
DR13 -1.25 dB -16.52 dB 3:01 10-Tell It Like It Is
DR12 -3.06 dB -17.13 dB 2:22 11-Come Softly To Me
DR10 -4.21 dB -17.06 dB 3:38 12-Georgia On My Mind
DR10 -3.26 dB -14.57 dB 2:46 13-Working In A Coalmine
DR11 -3.58 dB -16.39 dB 2:24 14-Duke Of Earl
DR12 -1.31 dB -14.71 dB 2:05 15-Wonderfull World
--------------------------------------------------------------------------------

Number of tracks: 15
Official DR value: DR11

[Spanish] https://nauscopio.wordpress.com/2009/07/05/lo-mejor-del-soul-1992/
[Spanish] https://nauscopio.wordpress.com/2009/08/18/lo-mejor-del-soul-1992-2cd-flac/

Ten years ago, when many insisted on the goodness of the MP3 and could not differentiate a good ripping at 320 kbps, I was already with Ogg (Ogg Vorbis (aoTuV b5), with my own (with AngelGR) compilations and configurations of the soft used to rip. Golden ears call me a few of Spanish audiophile and now others insinuate it on account of audio tests that I overcome very easily.
 
Last edited:

maty

Major Contributor
Joined
Dec 12, 2017
Messages
4,563
Likes
3,125
Location
Tarragona (Spain)
Zizi Possi - Minha Istoria (1993), CD, Polygram, Brazil

https://www.discogs.com/Zizi-Possi-M...lease/11201048

R-8291992-1458760764-6646.jpeg.jpg


DR Peak RMS Duration Track
--------------------------------------------------------------------------------
DR12 -1.13 dB -15.44 dB 4:45 02-Perigo
DR13 -1.59 dB -17.55 dB 4:03 03-Papel Marchê
DR14 -2.19 dB -18.46 dB 4:10 04-Meu Amigo, Meu Herói
DR13 0.00 dB -19.18 dB 3:58 05-Meu Erro
DR15 0.00 dB -18.55 dB 4:11 06-Pra Sempre E Mais Um Dia
DR11 -3.08 dB -17.34 dB 3:39 07-Nunca
DR14 -0.90 dB -17.06 dB 4:30 08-O Amor Vem Pra Cada Um
DR12 0.00 dB -15.66 dB 3:41 09-Noite
DR13 -1.94 dB -18.56 dB 3:15 10-Luiza
DR13 -0.51 dB -17.24 dB 3:06 11-Irmão Sol, Irmã Lua
DR11 -3.26 dB -17.14 dB 3:00 12-Luz E Mistério
DR12 -1.89 dB -16.85 dB 3:15 13-Pedaço De Mim
DR13 -0.57 dB -16.53 dB 3:56 14-Tempos Modernos
DR16 -0.11 dB -17.32 dB 3:21 15-Dê Um Rolé
--------------------------------------------------------------------------------

Number of tracks: 14
Official DR value: DR13

[Portuguese] Zizi Possi – Wikipedia, a enciclopedia livre
To English, better with Google Translate
 

maty

Major Contributor
Joined
Dec 12, 2017
Messages
4,563
Likes
3,125
Location
Tarragona (Spain)
A very great European/Polish modern classical composer, Wojciech Kilar. The other two of the stellar polish trio: Krzysztof Penderecki and Henryk Górecki. More knowed by the soundtracks, off course. Yes, Dracula.

Wojciech Kilar - Warsaw To Hollywood (Music from the films) (1997), CD, BMG, Europe

https://www.discogs.com/es/Wojciech-Kilar-Warsaw-To-Hollywood-Music-From-The-Films/release/7298445

Wojciech-Kilar-Warsaw-To-Hollywood-cover.jpg


DR Peak RMS Duration Track
--------------------------------------------------------------------------------
DR11 -0.03 dB -14.22 dB 5:13 01-La Grande Marche De La Cavalerie
DR11 -0.27 dB -18.83 dB 4:08 02-Witek Et Alina
DR10 -0.03 dB -16.46 dB 3:08 03-Sortie Du Port
DR11 -1.27 dB -18.13 dB 4:11 04-Valse Romantique
DR14 -0.57 dB -20.41 dB 4:48 05-Mina/Dracula
DR14 -0.03 dB -18.29 dB 4:42 06-The Storm
DR11 -0.41 dB -16.60 dB 3:34 07-Paulina's Revenge
DR13 -0.03 dB -16.81 dB 3:28 08-Roberto's Last Chance
DR13 -1.58 dB -19.24 dB 3:50 09-Paulina's Theme
DR13 -0.12 dB -16.25 dB 2:27 10-Galop I
DR14 -10.19 dB -28.22 dB 1:56 11-Generique
DR12 -1.66 dB -17.72 dB 2:15 12-Galop II
DR13 -1.05 dB -17.51 dB 5:17 13-Retour A La Maison
DR11 -0.19 dB -13.08 dB 1:27 14-Alla Polacca
DR10 -5.31 dB -21.36 dB 2:25 15-Emilie & Norman
DR10 -1.96 dB -15.39 dB 2:27 16-La Cellule d'Auschwitz
DR13 -0.24 dB -16.51 dB 2:46 17-Saint Maximilien
DR10 -1.24 dB -18.72 dB 1:38 18-Theme Pour Hautbois
DR10 -3.69 dB -15.69 dB 1:52 19-Theme Pour Cordes
DR12 -0.03 dB -16.30 dB 2:29 20-Tango
DR10 -2.53 dB -16.19 dB 3:26 21-Les Fontaines
DR11 -0.12 dB -16.02 dB 5:04 22-Grande Valse
--------------------------------------------------------------------------------

Number of tracks: 22
Official DR value: DR12

[Spanish] https://nauscopio.wordpress.com/200...o-hollywood-1997-zbigniew-preisner-bleu-1993/

http://users.telenet.be/soundtrack-fm/Compilations/warsaw_hollywood/warsaw_hollywood.htm

https://en.wikipedia.org/wiki/Wojciech_Kilar
 

maty

Major Contributor
Joined
Dec 12, 2017
Messages
4,563
Likes
3,125
Location
Tarragona (Spain)
Today Madrid (Spain) will be the new capital of la Argentina. Copa Libertadores, Boca - River, at the Santiago Bernabéu stadium.

"Bienaventurados los que buscan la paz, porque ellos serán llamados hijos de Dios". Mateo 5, 7

Carlos Gardel - Singles Album 01 (1927-1933) Vinyl, Odeon 10inch Shellac 78rpm

Gardel-La-Cumparsita-78rpm-10-inch.jpg


DR Peak RMS Filename
----------------------------------------------------------------------------------------------

DR14 -2.18 dB -19.41 dB 01 - La Cumparsita.wav
DR16 -1.91 dB -21.59 dB 02 - Milonga Sentimental.wav
DR18 -1.98 dB -23.86 dB 03 - El Tirador Plateado.wav
DR15 -2.51 dB -21.01 dB 04 - Rie Payaso.wav
DR12 -2.90 dB -17.86 dB 05 - Dandy.wav
DR13 -2.81 dB -18.43 dB 06 - Ebrio.wav
DR14 -3.55 dB -20.81 dB 07 - Sanjuanina De Mi Amor.wav
DR15 -2.57 dB -20.92 dB 08 - Rencor.wav
DR15 -3.71 dB -22.89 dB 09 - El Cardo Azul.wav
DR14 -2.11 dB -20.32 dB 10 - Amigazo.wav
DR15 -2.17 dB -20.05 dB 11 - Gotas De Veneno.wav
DR13 -2.27 dB -18.50 dB 12 - Resignate Hermano.wav
DR15 -2.93 dB -21.29 dB 13 - Muñeca Brava.wav
DR14 -2.34 dB -19.42 dB 14 - Calor De Hogar.wav
DR14 -2.75 dB -19.94 dB 15 - Cotorrita De La Suerte.wav
DR16 -2.08 dB -24.37 dB 16 - Que Se Vayan.wav
DR12 -3.33 dB -18.99 dB 17 - Mala Entraña.wav
DR16 -2.52 dB -22.11 dB 18 - Vieja Recoba.wav
DR13 -2.82 dB -18.90 dB 19 - Queja Indiana.wav
DR15 -2.23 dB -20.69 dB 20 - Almagro.wav
DR13 -2.46 dB -19.35 dB 21 - Un Tropezón.wav
DR13 -2.50 dB -18.60 dB 22 - Se Acabaron Los Otarios.wav
DR15 -3.18 dB -21.44 dB 23 - Viva La Patria.wav
DR15 -2.04 dB -21.60 dB 24 - El Sol Del 25.wav
----------------------------------------------------------------------------------------------

Number of files: 24
Official DR value: DR14

Full collection with:

Carlos Gardel - Singles Album 02 (1927-1935), Vinyl, Odeon 10inch Shellac 78rpm
Carlos Gardel - Singles Album 03 (1927-1935), Vinyl, Odeon 10inch Shellac 78rpm
Carlos Gardel - Singles Album 04 (1927-1935), Vinyl, Odeon 10inch Shellac 78rpm

[Spanish] https://es.wikipedia.org/wiki/Carlos_Gardel
https://en.wikipedia.org/wiki/Carlos_Gardel

Very old technology but high DR. Now, with far superior technology, the loudness war is killing popular music.
 
Last edited:

maty

Major Contributor
Joined
Dec 12, 2017
Messages
4,563
Likes
3,125
Location
Tarragona (Spain)
A great compilation!

Lambert Wilson - Musicals (1989), CD, EMI, Germany

https://www.discogs.com/Lambert-Wil...nique-De-Monte-Carlo-Musicals/release/7594268

R-7594268-1444756265-5765.jpeg.jpg


DR Peak RMS Duration Track
--------------------------------------------------------------------------------
DR15 0.00 dB -21.90 dB 3:19 01-Empty Chairs and Empty Tables
DR14 -0.21 dB -20.84 dB 2:53 02-Maria
DR13 0.00 dB -17.85 dB 6:34 03-Gigi
DR11 -17.14 dB -33.86 dB 2:07 04-It Must Be So
DR12 0.00 dB -19.76 dB 3:14 05-Never Will I Marry
DR12 -5.99 dB -25.47 dB 2:32 06-The Way You Look Tonight
DR15 0.00 dB -22.62 dB 4:18 07-Love Song
DR14 -7.01 dB -26.14 dB 3:07 08-A Fine Romance
DR17 -4.57 dB -26.75 dB 4:41 09-How to Handle a Woman
DR15 -0.72 dB -21.40 dB 2:16 10-Johanna
DR17 -1.37 dB -25.60 dB 3:43 11-Finishing the Hat
DR14 0.00 dB -19.38 dB 5:36 12-Alone Together
DR15 -1.20 dB -21.28 dB 3:54 13-You Do Something to Me
DR13 0.00 dB -18.59 dB 3:51 14-There But For You Go I
DR14 -1.38 dB -24.12 dB 2:43 15-Silly People
DR15 0.00 dB -20.04 dB 5:17 16-Night and Day
--------------------------------------------------------------------------------

Number of tracks: 16
Official DR value: DR14

I love Empty Chairs and Empty Tables, from Les Miserables.

There's a grief that can't be spoken,
There's a pain goes on and on.
Empty chairs at empty tables,
Now my friends are dead and gone.
Here they talked of revolution,
Here it was they lit the flame,
Here they sang about tomorrow and tomorrow never came.
From the table in the corner,
They could see a world reborn,
And they rose with voices ringing,
And I can hear them now
The very words that they have sung
Became their last communion
On this lonely barricade, at dawn.
Oh my friends, my friends forgive me
That I live and you are gone
There's a grief that can't be spoken,
And there's a pain goes on and on
Phantom faces at the window,
Phantom shadows on the floor,
Empty chairs at empty tables where my friends will meet no more.
Oh my friends, my friends don't ask me
What your sacrifice was for
Empty chairs at empty tables
Where my friend will sing no more.

Musicals in Spain have become fashionable in recent years. Some of us have appreciated good music for decades!
 

maty

Major Contributor
Joined
Dec 12, 2017
Messages
4,563
Likes
3,125
Location
Tarragona (Spain)
A new loudness crime, of the hand of Philips in its 2006 reedition :mad:

Maria Bethania - Mel (1979), 2006 Philips, Brazil

https://www.discogs.com/Maria-Bethânia-Mel/release/4841591

R-4841591-1377196165-3604.jpeg.jpg


DR Peak RMS Duration Track
--------------------------------------------------------------------------------
DR7 -0.25 dB -8.93 dB 3:50 01-Mel
DR9 -0.25 dB -10.12 dB 2:22 02-Ela e Eu
DR8 -0.60 dB -10.67 dB 2:22 03-Cheiro de Amor
DR7 0.00 dB -8.98 dB 2:57 04-Da Cor Brasileira
DR7 -0.10 dB -8.69 dB 2:43 05-Loucura
DR10 0.00 dB -13.44 dB 2:30 06-Gota de Sangue
DR7 -0.25 dB -9.15 dB 3:02 07-Grito de Alerta
DR7 -0.25 dB -9.27 dB 2:49 08-Lábios de Mel
DR8 -0.25 dB -10.83 dB 2:21 09-Amando sobre os Jornais
DR9 -0.25 dB -11.14 dB 2:44 10-Nenhum Verão
DR8 -0.25 dB -10.39 dB 2:46 11-Infinito Desejo
DR8 -0.25 dB -12.07 dB 1:09 12-Queda-d'Água
--------------------------------------------------------------------------------

Number of tracks: 12
Official DR value: DR8

https://www.amazon.com/Mel-Maria-Bethânia/dp/B002AVJCT2#customerReviews

[Portuguese] https://pt.wikipedia.org/wiki/Maria_Bethânia
https://en.wikipedia.org/wiki/Maria_Bethânia
 

maty

Major Contributor
Joined
Dec 12, 2017
Messages
4,563
Likes
3,125
Location
Tarragona (Spain)
Better with Equalization. I try my MP3 eq in JRMC 64bits.

JRMC-Equalizer-MP3.png
 

maty

Major Contributor
Joined
Dec 12, 2017
Messages
4,563
Likes
3,125
Location
Tarragona (Spain)
Tom Waits - Nighthawks at the Diner (1975), Vinyl, Asylum Records, US

https://www.discogs.com/Tom-Waits-Nighthawks-At-The-Diner/release/704571

R-704571-1159913796.jpeg.jpg


DR Peak RMS Duration Track
--------------------------------------------------------------------------------
DR14 -1.89 dB -19.06 dB 2:58 01-(Opening Intro)
DR15 -1.64 dB -20.82 dB 3:48 02-Emotional Weather Report
DR17 -3.88 dB -24.60 dB 2:17 03-(Intro)
DR15 -1.56 dB -20.30 dB 3:49 04-On a Foggy Night
DR14 -4.68 dB -21.99 dB 1:53 05-(Intro)
DR14 -1.93 dB -18.86 dB 4:17 06-Eggs and Sausage (In a Cadillac with Susan Michelson)
DR14 -3.77 dB -22.24 dB 3:16 07-(Intro)
DR14 -3.21 dB -19.61 dB 4:00 08-Better Off Without a Wife
DR16 0.00 dB -19.58 dB 11:29 09-Nighthawk Postcards (From Easy Street)
DR14 -6.47 dB -23.69 dB 0:56 10-(Intro)
DR15 -0.66 dB -19.73 dB 5:21 11-Warm Beer and Cold Women
DR14 -6.85 dB -25.51 dB 0:48 12-(Intro)
DR14 -3.50 dB -21.23 dB 7:36 13-Putnam County
DR15 -1.18 dB -20.56 dB 6:24 14-Spare Parts I (A Nocturnal Emission)
DR14 -4.59 dB -21.60 dB 2:51 15-Nobody
DR14 -6.04 dB -26.31 dB 0:42 16-(Intro)
DR15 -3.11 dB -21.38 dB 6:29 17-Big Joe and Phantom 309
DR13 0.00 dB -17.80 dB 5:15 18-Spare Parts II and Closing
--------------------------------------------------------------------------------

Number of tracks: 18
Official DR value: DR14

CD

https://www.amazon.com/Nighthawks-at-Diner-TOM-WAITS/dp/B000002GYG
 

maty

Major Contributor
Joined
Dec 12, 2017
Messages
4,563
Likes
3,125
Location
Tarragona (Spain)
Only I have heard the first LP but...

AWESOME, OUTSTANDING, INCREDIBLE...

The last time I heard it was before summer. The sound improvement is overwhelming. It seems that the group is in the room and TW sings to me.

Live, small group of acoustic instruments, such a particular voice and we have an explosive combination!

Off course, dark room. And many memories of the time when I discovered the singer, in the eighties, in Barcelona.

Nighthawks at the Diner - Wikipedia
 

Phronesis

Member
Joined
May 13, 2018
Messages
39
Likes
56
Location
Maryland, USA

StevenEleven

Addicted to Fun and Learning
Forum Donor
Joined
Dec 1, 2018
Messages
581
Likes
1,186
Last edited:

StevenEleven

Addicted to Fun and Learning
Forum Donor
Joined
Dec 1, 2018
Messages
581
Likes
1,186
 
Top Bottom