• WANTED: Happy members who like to discuss audio and other topics related to our interest. Desire to learn and share knowledge of science required as is 20 years of participation in forums (not all true). Come here to have fun, be ready to be teased and not take online life too seriously. We now measure and review equipment for free! Click here for details.

What are we listening to right now..

maty

Major Contributor
Joined
Dec 12, 2017
Messages
2,026
Likes
895
Location
Tarragona (Spain)
Frank Sinatra – Swing Easy! + Songs For Young Lovers (1954) {24-192} Download Remasters

https://www.discogs.com/Frank-Sinatra-Songs-For-Young-LoversSwing-Easy/release/6636513

Songs For Young Lovers



DR Peak RMS Duration Track
--------------------------------------------------------------------------------
DR11 -0.28 dB -15.06 dB 2:31 01-My Funny Valentine
DR11 -0.58 dB -14.01 dB 2:35 02-The Girl Next Door
DR11 -0.23 dB -13.99 dB 2:37 03-A Foggy Day
DR11 -0.34 dB -14.24 dB 3:09 04-Like Someone In Love
DR11 -0.25 dB -14.36 dB 2:53 05-I Get A Kick Out Of You
DR11 -0.74 dB -14.56 dB 2:51 06-Little Girl Blue
DR11 -0.33 dB -13.58 dB 1:56 07-They Can't Take That Away From Me
DR11 -0.18 dB -13.44 dB 3:05 08-Violets For Your Furs
--------------------------------------------------------------------------------

Number of tracks: 8
Official DR value: DR11
 

maty

Major Contributor
Joined
Dec 12, 2017
Messages
2,026
Likes
895
Location
Tarragona (Spain)
Swing Easy!



DR Peak RMS Duration Track
--------------------------------------------------------------------------------
DR13 -0.84 dB -16.52 dB 3:13 01-Just One Of Those Things
DR12 -0.05 dB -14.83 dB 2:25 02-I'm Gonna Sit Right Down (And Write Myself A Letter)
DR12 -0.33 dB -14.75 dB 2:28 03-Sunday
DR12 -0.56 dB -15.80 dB 2:13 04-Wrap Your Troubles In Dreams (And Dream Your Troubles Away)
DR12 -1.04 dB -15.92 dB 2:11 05-Taking A Chance On Love
DR12 -0.26 dB -13.92 dB 2:21 06-Jeepers Creepers
DR12 -0.56 dB -15.32 dB 2:23 07-Get Happy
DR11 -0.41 dB -14.91 dB 2:07 08-All Of Me
--------------------------------------------------------------------------------

Number of tracks: 8
Official DR value: DR12
 

maty

Major Contributor
Joined
Dec 12, 2017
Messages
2,026
Likes
895
Location
Tarragona (Spain)
Maria-João Pires & Scimone, I Solisti Veneti - Mozart - Deux Concertos Pour Piano N° 8 En Ut Majeur KV 246 - N°27 En Si Bémol Majeur KV 595 Vol. 5 (1977), Vinyl, Erato, France

https://www.discogs.com/Maria-João-Pires-Interprete-W-A-Mozart-I-Solisti-Veneti-Dir-Claudio-Scimone-Deux-Concertos-Pour-Pia/release/9379791



DR Peak RMS Duration Track
--------------------------------------------------------------------------------
DR14 -0.07 dB -17.57 dB 7:50 01-Concerto En Do Majeur KV 246, Allegro Aperto
DR14 -3.44 dB -21.81 dB 8:18 02-Concerto En Do Majeur KV 246, Andante
DR13 -1.40 dB -20.13 dB 7:17 03-Concerto En Do Majeur KV 246, Tempo di Menuetto
DR14 -1.85 dB -21.10 dB 14:24 04-Concerto En Si Bémol Majeur KV 595, Allegro
DR14 -4.47 dB -24.88 dB 8:02 05-Concerto En Si Bémol Majeur KV 595, Larghetto
DR14 -0.07 dB -18.63 dB 9:14 06-Concerto En Si Bémol Majeur KV 595, Allegro
--------------------------------------------------------------------------------

Number of tracks: 6
Official DR value: DR14
 
Joined
Feb 21, 2019
Messages
51
Likes
26
Location
Singapore
Diana Panton, I believe in Little Things

https://www.discogs.com/Diana-Panton-I-Believe-In-Little-Things/master/1071241

The album that I bought is from 2xHD label:
https://www.hdtracks.com/diana-panton-i-believe-in-little-things

Cover.jpg


Simply one of the best female vocal recording I've ever heard.

foobar2000 1.4.8 / Dynamic Range Meter 1.1.1
log date: 2019-12-04 14:17:25

--------------------------------------------------------------------------------
Analyzed: Diana Panton / Diana Panton, I believe in Little Things
--------------------------------------------------------------------------------

DR Peak RMS Duration Track
--------------------------------------------------------------------------------
DR9 -6.78 dB -18.44 dB 3:58 01-In a World of My Own
DR9 -7.08 dB -18.54 dB 5:38 02-Alice in Wonderland
DR9 -6.87 dB -18.44 dB 4:16 03-Pure Imagination
DR10 -7.00 dB -19.50 dB 3:31 04-Imagination
DR8 -6.86 dB -17.59 dB 4:42 05-Sing
DR9 -7.12 dB -19.34 dB 3:20 06-I’m Going to Go Back There Someday
DR9 -7.02 dB -18.20 dB 3:20 07-The Rainbow Connection
DR9 -6.92 dB -18.97 dB 2:48 08-Little Things
DR9 -6.90 dB -18.35 dB 5:49 09-When You Wish Upon a Star
DR9 -6.85 dB -19.71 dB 2:12 10-Halfway Down the Stairs
DR9 -6.86 dB -17.69 dB 3:38 11-Everybody Sleeps
DR9 -6.98 dB -19.34 dB 4:50 12-Sleep Is a Precious Thing
DR10 -6.73 dB -19.68 dB 4:13 13-Hushabye Mountain
DR9 -7.56 dB -20.18 dB 2:30 14-Slumber My Darling
--------------------------------------------------------------------------------

Number of tracks: 14
Official DR value: DR9

Samplerate: 96000 Hz
Channels: 2
Bits per sample: 24
Bitrate: 4616 kbps
Codec: FLAC
================================================================================
 
Joined
Apr 30, 2018
Messages
325
Likes
147
Location
Netherlands

Daniel Maunick the son of Jean-Paul Maunick (Founder of Incognito) he Groooooves like his father. A refreshment.
 
Last edited:
Top Bottom