• WANTED: Happy members who like to discuss audio and other topics related to our interest. Desire to learn and share knowledge of science required as is 20 years of participation in forums (not all true). Come here to have fun, be ready to be teased and not take online life too seriously. We now measure and review equipment for free! Click here for details.

What are we listening to right now..

Sal1950

Major Contributor
The Chicago Crusher
Forum Donor
Joined
Mar 1, 2016
Messages
8,952
Likes
8,517
Location
Central Fl
Wake and Bake
Pink Floyd - Wish You Were Here
5.1 24/96 2011 Immersion Set BluRay
Surround mix by James Guthrie Awesome

BluRay.jpg
 

maty

Major Contributor
Joined
Dec 12, 2017
Messages
3,905
Likes
2,534
Location
Tarragona (Spain)
Roberta Flack - Killing Me Softly (1973), Vinyl, Rhino 180g 2011, US

https://www.discogs.com/Roberta-Flack-Killing-Me-Softly/release/393582

R-393582-1402536171-6845.jpeg.jpg


DR Peak RMS Filename
----------------------------------------------------------------------------------------------

DR12 -2.29 dB -17.46 dB 01 - Killing Me Softly with His Song
DR10 -4.26 dB -18.31 dB 02 - Jesse
DR14 -0.15 dB -15.90 dB 03 - No Tears [In the End]
DR10 -6.88 dB -21.84 dB 04 - I'm the Girl
DR13 -0.78 dB -16.11 dB 05 - River
DR12 -1.99 dB -16.22 dB 06 - Conversation Love
DR11 -0.47 dB -13.89 dB 07 - When You Smile
DR14 -1.29 dB -18.60 dB 08 - Suzanne
----------------------------------------------------------------------------------------------

Number of files: 8
Official DR value: DR12
 

maty

Major Contributor
Joined
Dec 12, 2017
Messages
3,905
Likes
2,534
Location
Tarragona (Spain)
Rosand-Flissler - Beethoven - Violin Sonatas Vol 1 (1965), Vinyl x3, VOX, US

https://www.discogs.com/Aaron-Rosan...eethoven-Violin-Sonatas-Vol-1/release/3588328

Rosand-Flissler-Beethoven-Violin-Sonatas-Vol-1.jpg


DR Peak RMS Duration Track
--------------------------------------------------------------------------------
DR11 -0.05 dB -14.77 dB 8:44 01-Sonata #1 in D Major, Op. 12 #1 - I. Allegro con brio
DR12 -0.51 dB -18.20 dB 8:22 02-Sonata #1 in D Major, Op. 12 #1 - II. Andante con moto
DR11 -0.05 dB -15.13 dB 4:47 03-Sonata #1 in D Major, Op. 12 #1 - III. Rondo Allegro
DR11 -0.05 dB -15.42 dB 6:07 04-Sonata #2 in A Major, Op. 12 #2 - I. Allegro vivace
DR13 -1.81 dB -19.55 dB 5:47 05-Sonata #2 in A Major, Op. 12 #2 - II. Andante, piu tosto Allegretto
DR11 -0.82 dB -16.51 dB 4:37 06-Sonata #2 in A Major, Op. 12 #2 - III. Allegro piacevole
DR11 -0.56 dB -16.30 dB 8:02 07-Sonata #3 in E Flat Major, Op. 12 #3 - I. Allegro con spirito
DR15 -0.05 dB -20.81 dB 6:38 08-Sonata #3 in E Flat Major, Op. 12 #3 - II. Adagio con molt' espressione
DR11 -1.06 dB -16.27 dB 4:29 09-Sonata #3 in E Flat Major, Op. 12 #3 - III. Rondo, allegro molto
DR11 -0.05 dB -15.22 dB 7:03 10-Sonata #4 in A Minor, Op. 23 - I. Presto
DR13 -1.41 dB -18.44 dB 9:11 11-Sonata #4 in A Minor, Op. 23 - II. Andante scherzoso, piu Allegretto
DR11 -0.05 dB -15.89 dB 5:19 12-Sonata #4 in A Minor, Op. 23 - III. Allegro molto
DR13 -0.05 dB -17.29 dB 8:57 13-Sonata #5 in F Major, Op. 24 (Spring Sonata) - I. Allegro
DR14 -2.28 dB -21.39 dB 5:38 14-Sonata #5 in F Major, Op. 24 (Spring Sonata) - II. Adagio molto espressivo
DR11 -1.21 dB -17.92 dB 1:17 15-Sonata #5 in F Major, Op. 24 (Spring Sonata) - III. Scherzo, allegro molto
DR11 -1.39 dB -16.92 dB 6:25 16-Sonata #5 in F Major, Op. 24 (Spring Sonata) - IV. Rondo, allegro ma non troppo
DR11 -1.23 dB -16.01 dB 7:09 17-Sonata #6 in A Major, Op. 30 #1 - I. Allegro
DR11 -1.45 dB -17.57 dB 8:12 18-Sonata #6 in A Major, Op. 30 #1 - II. Adagio molto espressivo
DR11 -0.05 dB -14.71 dB 7:35 19-Sonata #6 in A Major, Op. 30 #1 - III. Allegretto con Variazioni
--------------------------------------------------------------------------------

Number of tracks: 19
Official DR value: DR12
 

Andolink

Active Member
Joined
Aug 12, 2017
Messages
105
Likes
91
Location
Scottsdale, AZ
636943612620.jpg
 

Snarfie

Addicted to Fun and Learning
Forum Donor
Joined
Apr 30, 2018
Messages
713
Likes
517
Location
Netherlands
 

maty

Major Contributor
Joined
Dec 12, 2017
Messages
3,905
Likes
2,534
Location
Tarragona (Spain)
Bob Seger & The Silver Bullet Band - Like A Rock (1986), Vinyl, Capitol 1st Pressing, Italy

https://www.discogs.com/Bob-Seger-The-Silver-Bullet-Band-Like-A-Rock/release/1596515

R-1596515-1241015091.jpeg.jpg


DR Peak RMS Filename
----------------------------------------------------------------------------------------------

DR15 -0.45 dB -17.29 dB A1 American Storm
DR14 -0.81 dB -18.52 dB A2 Like A Rock
DR14 -1.58 dB -17.83 dB A3 Miami
DR15 -1.47 dB -20.11 dB A4 The Ring
DR15 -0.88 dB -17.89 dB B1 Tightrope
DR15 -0.38 dB -16.80 dB B2 The Aftermath
DR13 -2.63 dB -18.06 dB B3 Sometimes
DR15 -1.06 dB -18.33 dB B4 It's You
DR13 -3.57 dB -21.52 dB B5 Somewhere Tonight
----------------------------------------------------------------------------------------------

Number of files: 9
Official DR value: DR14


https://www.amazon.com/Like-Rock-Seger-Silver-Bullet/dp/B000092IZC
 

maty

Major Contributor
Joined
Dec 12, 2017
Messages
3,905
Likes
2,534
Location
Tarragona (Spain)
Rimsky-Korsakov*, Turina*, Debussy* - Eduardo Mata And Dallas Symphony Orchestra - Iberia / Capriccio Espagnol, Op.34 / Orgia (1981, Vinyl) | Discogs



DR Peak RMS Filename
----------------------------------------------------------------------------------------------

DR15 -0.56 dB -21.48 dB A1 Rimsky-Korsakov - Capriccio Espagnol, Op.34
DR15 -0.27 dB -20.15 dB A2 Turina - Orgia
DR20 -0.52 dB -27.00 dB B Debussy - Iberia
----------------------------------------------------------------------------------------------

Number of files: 3
Official DR value: DR17
 

maty

Major Contributor
Joined
Dec 12, 2017
Messages
3,905
Likes
2,534
Location
Tarragona (Spain)
Beecham, Berlin Philharmonic Orchestra And Chorus - Mozart - The Magic Flute (1955), Vinyl, mono, EMI VOX/Turnabout, UK

https://www.discogs.com/Sir-Thomas-...a-And-Chorus-The-Magic-Flute/release/12175369

Beecham-Mozart-Magic-Flute-voxset-vinyl-cover.jpg


DR Peak RMS Filename
----------------------------------------------------------------------------------------------

DR12 -0.52 dB -17.31 dB side1
DR13 -0.93 dB -18.66 dB side2
DR12 -1.75 dB -17.59 dB side3
DR11 -0.94 dB -17.06 dB side4
DR10 -1.47 dB -15.81 dB side5
DR12 -1.08 dB -17.06 dB side6
----------------------------------------------------------------------------------------------

Number of Files: 6
Official DR Value: DR12

*** Recorded in 1937 in Berlin ***


CD x2, 1999

https://www.amazon.com/Mozart-Zauberflote-Magic-Beecham-Strienz/dp/B000009J5N
 
Last edited:

Andolink

Active Member
Joined
Aug 12, 2017
Messages
105
Likes
91
Location
Scottsdale, AZ
R-12224548-1530873488-8597.jpeg.jpg
 

Andolink

Active Member
Joined
Aug 12, 2017
Messages
105
Likes
91
Location
Scottsdale, AZ
L. van Beethoven: Quartet for Strings no 13 in B flat major, Op. 130

s-l1600.jpg
 

maty

Major Contributor
Joined
Dec 12, 2017
Messages
3,905
Likes
2,534
Location
Tarragona (Spain)
Rory Gallagher - Calling Card (1976), Vinyl, Chrysalis, Germany

https://www.discogs.com/Rory-Gallagher-Calling-Card/release/2813030

R-2813030-1526417516-4880.jpeg.jpg


DR Peak RMS Filename
----------------------------------------------------------------------------------------------

DR14 -0.62 dB -15.96 dB A1 Do You Read Me
DR12 -0.50 dB -15.79 dB A2 Country Mile
DR12 -0.56 dB -14.85 dB A3 Moonchild
DR14 -0.85 dB -17.67 dB A4 Calling Card
DR14 -0.77 dB -17.51 dB A5 I'll Admit You're Gone
DR13 -0.39 dB -14.97 dB B1 Secret Agent
DR15 -0.71 dB -18.31 dB B2 Jackknife Beat
DR12 -0.95 dB -15.09 dB B3 Edged In Blue
DR13 -0.67 dB -15.80 dB B4 Barley And Grape Rag
----------------------------------------------------------------------------------------------

Number of files: 9
Official DR value: DR13


CD, 2008 DR8

https://www.amazon.com/Calling-Card-Rory-Gallagher/dp/B0012GN44U


http://dr.loudness-war.info/album/list/year?artist=Rory+Gallagher&album=Calling+Card :) :) :) :) :)
 

maty

Major Contributor
Joined
Dec 12, 2017
Messages
3,905
Likes
2,534
Location
Tarragona (Spain)
Johann Sebastian Bach, Concerto Köln - Brandenburg Concertos (2018), Vinyl x2, Berlin Classics, Germany

https://www.discogs.com/Johann-Sebastian-Bach-Concerto-Köln-Brandenburg-Concertos/release/11732754

R-11732754-1521452144-6731.jpeg.jpg


DR Peak RMS Filename
----------------------------------------------------------------------------------------------

DR12 -0.61 dB -16.44 dB A1 Brandenburgisches Konzert N. 1 F-Dur in F Major - BWV 1046 - 1. Allegro
DR12 -8.64 dB -23.65 dB A2 Brandenburgisches Konzert N. 1 F-Dur in F Major - BWV 1046 - 2. Adagio
DR14 -1.14 dB -19.37 dB A3 Brandenburgisches Konzert N. 1 F-Dur in F Major - BWV 1046 - 3. Allegro
DR14 -1.96 dB -19.39 dB A4 Brandenburgisches Konzert N. 1 F-Dur in F Major - BWV 1046 - 4. Menuet-Trio-Menuet-Polonaise-Menuet-Trio-Menuet
DR13 -0.51 dB -16.61 dB B1 Brandenburgisches Konzert N. 2 F-Dur in F Major - BWV 1047 - 1. Allegro
DR12 -6.58 dB -21.76 dB B1 Brandenburgisches Konzert N. 2 F-Dur in F Major - BWV 1047 - 2. Andante
DR13 -1.65 dB -17.83 dB B2 Brandenburgisches Konzert N. 2 F-Dur in F Major - BWV 1047 - 3. Allegro assai
DR14 -0.82 dB -18.06 dB B4 Brandenburgisches Konzert N. 3 G-Dur in G Major - BWV 1048 - 1. Allegro
DR10 -15.60 dB -29.30 dB B5 Brandenburgisches Konzert N. 3 G-Dur in G Major - BWV 1048 - 2. Adagio
DR13 -2.67 dB -19.35 dB B6 Brandenburgisches Konzert N. 3 G-Dur in G Major - BWV 1048 - 3. Allegro
DR13 -0.88 dB -17.54 dB C1 Brandenburgisches Konzert N. 4 G-Dur in G Major - BWV 1049 - 1. Allegro
DR11 -2.80 dB -17.33 dB C2 Brandenburgisches Konzert N. 4 G-Dur in G Major - BWV 1049 - 2. Andante
DR12 -1.89 dB -17.42 dB C3 Brandenburgisches Konzert N. 4 G-Dur in G Major - BWV 1049 - 3. Presto
DR15 -0.64 dB -19.53 dB C4 Brandenburgisches Konzert N. 5 D-Dur in D Major - BWV 1050 - 1. Allegro
DR13 -3.67 dB -22.08 dB D1 Brandenburgisches Konzert N. 5 D-Dur in D Major -0 BWV 1050 - 2. Affettuoso
DR13 -1.52 dB -17.89 dB D2 Brandenburgisches Konzert N. 5 D-Dur in D Major - BWV 1050 - 3. Allegro
DR13 -0.54 dB -16.36 dB D3 Brandenburgisches Konzert N. 6 B-Dur in B flat Major - BWV 1051 - 1. Allegro
DR13 -1.67 dB -18.45 dB D4 Brandenburgisches Konzert N. 6 B-Dur in B flat Major - BWV 1051 - 2. Adagio ma non tanto
DR14 -1.09 dB -17.33 dB D5 Brandenburgisches Konzert N. 6 B-Dur in B flat Major - BWV 1051 - 3. Allegro
----------------------------------------------------------------------------------------------

Number of files: 19
Official DR value: DR13


CD, 2014

https://www.amazon.de/Concerto-Köln-Brandenburgische-Konzerte/dp/B00MAUYWH0
 

Berwhale

Major Contributor
Forum Donor
Joined
Aug 29, 2019
Messages
1,800
Likes
2,062
Location
UK
 

maty

Major Contributor
Joined
Dec 12, 2017
Messages
3,905
Likes
2,534
Location
Tarragona (Spain)
Various - Die Stereo Hörtest Lp Volume III (2019), Vinyl, in-akustik, 45rpm 180g, Germany

https://www.discogs.com/Various-Die-Stereo-Hörtest-Lp-Volume-III/release/13760032
https://www.in-akustik.de/en/music-...ie-stereo-hoertest-lp-vol-ix-45-rpm-01679341/

R-13760032-1560525083-4387.jpeg.jpg


DR Peak RMS Filename
----------------------------------------------------------------------------------------------

DR13 -0.76 dB -17.87 dB A1 Eduard Strauss - Bahn Frei Polka
DR13 -0.65 dB -16.87 dB A2 Scotty Wright - Sound Of Silence
DR11 -0.78 dB -13.78 dB A3 Tokunbo Akinro - New June
DR11 -0.75 dB -15.40 dB A4 Martin Vatter - Exiting
DR15 -0.63 dB -18.40 dB B1 California Project - Wouldn't It Be Nice
DR13 -0.51 dB -17.32 dB B2 Lyn Stanley - Over The Rainbow
DR14 -0.72 dB -17.25 dB B3 Rafael Fraga - Terra Presa
DR11 -0.52 dB -14.15 dB B4 Rodrigo Y Gabriela - Juan Loco
DR11 -0.53 dB -14.27 dB C1 Jacob Bellens - Benaeath A Cloud
DR12 -0.52 dB -15.35 dB C2 Kevin Seddiki, Sandra Rumolino - Tres Luceros
DR13 -0.54 dB -15.94 dB C3 Paul Kuhn And The Best - Young At Heart
DR13 -0.40 dB -17.06 dB C4 Anne Bisson Trio - Summer Me, Winter Me
DR12 -0.25 dB -14.67 dB D1 Macy Gray - Slowly
DR9 -0.29 dB -11.80 dB D2 Brian Flanagan - Whole Lot Of Livin
DR14 -0.25 dB -17.74 dB D3 Ron Nelson - Rocky Point Holiday
----------------------------------------------------------------------------------------------

Number of files: 15
Official DR value: DR12
 

maty

Major Contributor
Joined
Dec 12, 2017
Messages
3,905
Likes
2,534
Location
Tarragona (Spain)
Freddie Mercury - Mr. Bad Guy (1986), Vinyl, Mercury Special Edition 2019, Europe

https://www.discogs.com/Freddie-Mercury-Mr-Bad-Guy/release/14250070

Freddie-Mercury- Mr-Bad-Guy-vinyl-se-2019-cover.jpg


DR Peak RMS Filename
----------------------------------------------------------------------------------------------

DR11 -0.65 dB -13.42 dB A1 Let's Turn It On
DR10 -1.18 dB -13.08 dB A2 Made In Heaven
DR10 -1.62 dB -13.46 dB A3 I Was Born To Love You
DR12 -0.83 dB -14.41 dB A4 Foolin' Around
DR11 -1.63 dB -14.47 dB A5 Your Kind Of Lover
DR10 -2.12 dB -14.82 dB B1 Mr. Bad Guy
DR11 -1.07 dB -13.39 dB B2 Man Made Paradise
DR10 -1.72 dB -14.12 dB B3 There Must Be More To Life Than This
DR11 -1.69 dB -14.26 dB B4 Living On My Own
DR11 -0.51 dB -13.21 dB B5 My Love Is Dangerous
DR10 -1.55 dB -13.38 dB B6 Love Me Like There's No Tomorrow
----------------------------------------------------------------------------------------------

Number of files: 11
Official DR value: DR11


I have to the 1985, CBS UK pressing, and in CD too.

DR Peak RMS Filename
----------------------------------------------------------------------------------------------

DR12 -0.88 dB -15.10 dB A1 Let's Turn It On
DR11 -1.88 dB -16.86 dB A2 Made In Heaven
DR12 -0.75 dB -15.39 dB A3 I Was Born To Love You
DR13 -1.19 dB -16.20 dB A4 Foolin' Around
DR13 -1.33 dB -17.11 dB A5 Your Kind Of Lover
DR12 -1.16 dB -16.17 dB B1 Mr. Bad Guy
DR13 -1.26 dB -17.14 dB B2 Man Made Paradise
DR12 -2.59 dB -17.86 dB B3 There Must Be More To Life Than This
DR13 -1.33 dB -16.50 dB B4 Living On My Own
DR12 -1.16 dB -16.58 dB B5 My Love Is Dangerous
DR13 -2.78 dB -18.74 dB B6 Love Me Like There's No Tomorrow
----------------------------------------------------------------------------------------------

Number of files: 11
Official DR value: DR12

Trust me, the Spetial Edition 2019 sounds much betterrrrrrrrrrrrr.

Oh my God, oh my God!!!!
 

maty

Major Contributor
Joined
Dec 12, 2017
Messages
3,905
Likes
2,534
Location
Tarragona (Spain)
I was born to love you

An amazing feeling coming through
I was born to love you
With every single beat of my heart
Yes, I was born to take care of you
Every single day of my life

You are the one for me, I am the man for you
You were made for me, you're my ecstasy
If I was given every opportunity I'd kill for your Love
So take a chance with me, let me romance with you
I'm caught in a dream, and my dream's come true
(It's) so hard to believe this is happening to me
An amazing feeling coming through

I was born to love you
With every single beat of my heart, yes
I was born to take care of you
Every single day of my life

I wanna love you, I love every little thing about you
I wanna love you, love you, love you
Born to love you, born to love you, yes I was born to Love you
Born to love you, born to love you every single day of my life
I was born to take care of you every single day of my life

I was born to love you
With every single beat of my heart
Yeah, I was born to take care of you, honey
Every single day of my life
 

Berwhale

Major Contributor
Forum Donor
Joined
Aug 29, 2019
Messages
1,800
Likes
2,062
Location
UK
 
Top Bottom