• WANTED: Happy members who like to discuss audio and other topics related to our interest. Desire to learn and share knowledge of science required as is 20 years of participation in forums (not all true). Come here to have fun, be ready to be teased and not take online life too seriously. We now measure and review equipment for free! Click here for details.

What are we listening to right now..

Joined
Aug 12, 2017
Messages
37
Likes
27
Location
Scottsdale, AZ
 
Joined
Aug 12, 2017
Messages
37
Likes
27
Location
Scottsdale, AZ
One of the best recordings for S/Q in my entire collection (well over 8,000 discs) and the music is delectable too - -

 

BDWoody

Addicted to Fun and Learning
Patreon Donor
Joined
Jan 9, 2019
Messages
603
Likes
752
This one sounds awesome with my Stax

I just had a nice long Knopfler playlist running, including that one. Great performance.
Running some favorites through a new speaker setup, and I could listen to him all night...
 

BDWoody

Addicted to Fun and Learning
Patreon Donor
Joined
Jan 9, 2019
Messages
603
Likes
752
 

maty

Major Contributor
Joined
Dec 12, 2017
Messages
1,391
Likes
560
Location
Tarragona (Spain)
David Bowie - The Rise And Fall Of Ziggy Stardust And The Spiders From Mars (1972), Vinyl, Parlophone, Remaster 2016, World

https://www.discogs.com/David-Bowie...ust-And-The-Spiders-From-Mars/release/8162188
https://www.amazon.com/Rise-Ziggy-Stardust-Spiders-Vinyl/dp/B01AJZ8EMG



DR Peak RMS Duration Track
--------------------------------------------------------------------------------
DR11 -1.32 dB -18.02 dB 4:43 01-Five Years
DR14 -0.98 dB -20.01 dB 3:35 02-Soul Love
DR14 -1.95 dB -18.88 dB 4:39 03-Moonage Daydream
DR13 -0.79 dB -17.66 dB 4:15 04-Starman
DR13 -2.03 dB -21.17 dB 3:01 05-It Ain't Easy
DR16 -2.00 dB -21.60 dB 3:22 06-Lady Stardust
DR13 -0.44 dB -16.54 dB 2:49 07-Star
DR15 -0.56 dB -17.05 dB 2:39 08-Hang On To Yourself
DR14 -3.39 dB -19.90 dB 3:15 09-Ziggy Stardust
DR15 -0.36 dB -17.30 dB 3:25 10-Suffragette City
DR13 -2.78 dB -20.89 dB 3:05 11-Rock 'N' Roll Suicide
--------------------------------------------------------------------------------

Number of tracks: 11
Official DR value: DR14


CD, 2015 Remaster

https://www.amazon.co.uk/Ziggy-Stardust-Spiders-Remastered-Version/dp/B0106UFG1G
 
Joined
Jul 9, 2019
Messages
97
Likes
115
One of my favorites of Hüsker Dü / Zen Arcade

DR14 -1.49 dB -18.10 dB 3:23 14-Standing by the Sea

You read it correct: this subjective wall of sound (from before the loudness war) is objectively a lovely dynamic song contemplating the meaning of life!
 
Top Bottom