• WANTED: Happy members who like to discuss audio and other topics related to our interest. Desire to learn and share knowledge of science required as is 20 years of participation in forums (not all true). Come here to have fun, be ready to be teased and not take online life too seriously. We now measure and review equipment for free! Click here for details.

What are we listening to right now..

murraycamp

Member
Patreon Donor
Joined
Jul 10, 2019
Messages
31
Likes
22
1568036420521.png
 

Eirikur

Active Member
Joined
Jul 9, 2019
Messages
195
Likes
242
I've never had the pleasure, and I'm originally from Washington D.C. area where they were based for many years... :D
Bad Brains were performing on May 30th, 1987 in "De Effenaar", Eindhoven, The Netherlands with supporting acts "fIREHOSE" and "God"

God was pretty good that day, and this tune is still fresh today!

Note Bob Mould on the Hüsker Dü poster in the background for fIREHOSE
 
Last edited:

maty

Major Contributor
Joined
Dec 12, 2017
Messages
1,599
Likes
690
Location
Tarragona (Spain)
Hans Theessink - 70 Birthday Bash (2019), Vinyl, Blue Groove, Austria

https://www.discogs.com/Hans-Theessink-70-Birthday-Bash/release/13317092




DR13 -1.22 dB -16.06 dB A1 Stormwarning
DR12 -1.32 dB -15.91 dB A2 Honest I Do
DR13 -1.37 dB -17.85 dB A3 Vicksburg Is My Home
DR13 -1.88 dB -17.61 dB A4 Set Me Free
DR13 -0.93 dB -16.48 dB B1 Running Home
DR13 -2.41 dB -17.42 dB B2 Leaving At Daybreak
DR13 -2.36 dB -19.02 dB B3 Old Man Trouble
DR12 -2.10 dB -16.73 dB B4 If I Needed You
DR13 -0.95 dB -16.99 dB B5 Slow Train
----------------------------------------------------------------------------------------------

Number of files: 9
Official DR value: DR13


CD, 2019

https://www.amazon.de/70-Birthday-Bash-Hans-Theessink/dp/B07MWZXLXG


http://www.theessink.com/

[German] https://de.wikipedia.org/wiki/Hans_Theessink

https://en.wikipedia.org/wiki/Hans_Theessink
 

MZKM

Senior Member
Joined
Dec 1, 2018
Messages
381
Likes
294
Location
Land O’ Lakes, Florida
Chloe x Halle Bailey- Cool People


Very euphoric. The one on the right (Halle) is playing Ariel in the Little Mermaid live action remake, and for this song of their’s in particular, I can easily envision that.
 
Last edited:

digicidal

Addicted to Fun and Learning
Joined
Jul 6, 2019
Messages
635
Likes
757
Location
Sin City, NV

Give it time... :cool:
 
Top Bottom