• WANTED: Happy members who like to discuss audio and other topics related to our interest. Desire to learn and share knowledge of science required as is 20 years of participation in forums (not all true). Come here to have fun, be ready to be teased and not take online life too seriously. We now measure and review equipment for free! Click here for details.

What are we listening to right now..

maty

Active Member
Joined
Dec 12, 2017
Messages
184
Likes
35
Location
Tarragona (Spain)
Ok. Got it :) I'm using dBpoweramp CD Ripper, it's using Accurate Rip database (it compares checksums of tracks uploaded by other users). When all is ok you got info: (X) Tracks Ripped Accurately.
:p:p:p

The problem is how to you save the tracks.

I think we need a new thread/forum about to make very good rips (CD, SACD or vinyl).
 
Last edited:

maty

Active Member
Joined
Dec 12, 2017
Messages
184
Likes
35
Location
Tarragona (Spain)
Rameau - The English Baroque Soloists, John Eliot Gardiner - Dardanus (1983), Vinyl, Erato, France

https://www.discogs.com/Rameau-The-...-John-Eliot-Gardiner-Dardanus/release/7905979



DR Peak RMS Duration Track
——————————————————————————
DR12 -1.25 dB -18.26 dB 2:36 01-Ouverture
DR12 -2.47 dB -18.61 dB 1:18 02-Marche Pour Les Différentes Nations
DR11 -7.16 dB -23.05 dB 1:38 03-Menuet Tendre En Rondeau
DR13 -1.59 dB -18.62 dB 2:16 04-Tambourins I & II
DR13 -1.75 dB -18.91 dB 2:15 05-Entrée Pour Les Guerriers
DR15 -0.05 dB -18.16 dB 2:23 06-Air Vif
DR14 -2.47 dB -22.03 dB 3:21 07-Rigaudons I & II
DR13 -1.10 dB -19.78 dB 2:00 08-Ritournelle Vive. Entrée D’Isménor
DR13 -2.79 dB -21.52 dB 2:37 09-Entrée D’Iphise
DR12 -6.89 dB -22.47 dB 2:46 10-Air En Rondeau
DR13 -3.35 dB -20.95 dB 4:46 11-Menuets I & II
DR14 -0.05 dB -19.07 dB 2:23 12-Tambourins I & II
DR14 -3.89 dB -19.91 dB 2:32 13-Tambourins I & II (1744)
DR12 -4.60 dB -21.07 dB 1:40 14-Entrée Des Songes
DR14 -7.42 dB -25.81 dB 3:32 15-Sommeil: Rondeau Tendre
DR13 -7.00 dB -24.37 dB 2:46 16-Air Tendre: Calme Des Sens
DR12 -9.58 dB -25.25 dB 3:48 17-Passepieds (Ou Air Vif) I (1744) & II (1739)
DR10 -13.80 dB -30.01 dB 0:39 18-Gavotte Vive
DR13 -4.46 dB -19.91 dB 1:09 19-Air De Triomphe
DR12 -0.05 dB -15.41 dB 1:02 20-Bruit De Guerre Pour Entr’Acte (1744)
DR13 -3.61 dB -20.84 dB 1:09 21-Contredanse
DR12 -10.71 dB -27.63 dB 1:30 22-Entrée De Vénus (1744)
DR12 -6.31 dB -22.11 dB 2:47 23-Gavottes I (Gracieuse) & II (En Rondeau)
DR13 -4.95 dB -22.27 dB 5:05 24-Chaconne
——————————————————————————
Number of tracks: 24
Official DR value: DR13

CD

https://www.amazon.fr/Rameau-Dardanus-John-Eliot-Gardiner/dp/B01CSZ67JW
 

maty

Active Member
Joined
Dec 12, 2017
Messages
184
Likes
35
Location
Tarragona (Spain)
Frank Sinatra at the Sands (1966), Vinyl, 2010 MFSL, US

https://www.discogs.com/Frank-Sinatra-Sinatra-At-The-Sands/release/2514210



DR Peak RMS Duration Track
--------------------------------------------------------------------------------
DR12 -2.33 dB -17.13 dB 3:46 01-Come Fly with Me
DR13 -3.49 dB -20.35 dB 2:42 02-I’ve Got a Crush on You
DR12 -1.81 dB -17.35 dB 3:44 03-I’ve Got You Under My Skin
DR13 -1.93 dB -18.60 dB 2:31 04-The Shadow of Your Smile
DR12 -1.83 dB -17.55 dB 2:17 05-Street of Dreams
DR16 -2.91 dB -24.18 dB 4:45 06-One for My Baby (and One More for the Road)
DR12 -1.18 dB -16.44 dB 2:49 07-Fly Me to the Moon
DR12 -0.78 dB -14.13 dB 0:54 08-One O'Clock Jump
DR14 -2.08 dB -19.97 dB 11:48 09-The Tea Break (Sinatra Monologue)
DR12 -0.19 dB -14.54 dB 3:18 10-You Make Me Feel So Young
DR13 -2.84 dB -19.85 dB 3:16 11-All of Me
DR12 -4.64 dB -20.53 dB 2:57 12-The September of My Years
DR12 -2.96 dB -17.08 dB 2:21 13-Get Me to the Church on Time
DR12 -4.96 dB -20.54 dB 4:00 14-It Was a Very Good Year
DR12 -3.61 dB -18.34 dB 3:21 15-Don't Worry 'Bout Me
DR13 -2.69 dB -19.17 dB 4:37 16-Makin' Whoopee
DR12 -3.39 dB -18.09 dB 2:46 17-Where or When
DR14 -5.49 dB -24.58 dB 3:26 18-Angel Eyes
DR11 -2.55 dB -16.93 dB 3:05 19-My Kind of Town
DR15 -4.37 dB -23.07 dB 2:32 20-A Few Last Words (Sinatra Monologue)
DR11 -4.31 dB -17.97 dB 1:02 21-My Kind of Town [reprise]
--------------------------------------------------------------------------------

Number of tracks: 21
Official DR value: DR12
 

maty

Active Member
Joined
Dec 12, 2017
Messages
184
Likes
35
Location
Tarragona (Spain)
Walter Wanderley Trio - Cheganca (1966), Vinyl, mono, Copacabana, Brazil

https://www.discogs.com/Walter-Wanderley-Cheganca/release/2611308

Walter-Wanderley-Cheganca-cover.jpg


DR Peak RMS Duration Track
--------------------------------------------------------------------------------
DR13 -3.78 dB -18.11 dB 2:51 01-Cheganca
DR12 -3.58 dB -18.05 dB 2:04 02-Amanha
DR13 -4.08 dB -18.67 dB 3:23 03-Take Care, My Heart
DR13 -5.45 dB -20.26 dB 2:31 04-Agua de Beber
DR13 -5.18 dB -21.22 dB 2:42 05-Here's That Rainy Day
DR11 -3.26 dB -16.34 dB 2:57 06-O Ganso
DR12 -4.25 dB -18.92 dB 2:38 07-Mar Amar
DR12 -4.15 dB -18.61 dB 2:56 08-Voce E Eu
DR12 -4.64 dB -18.69 dB 3:20 09-O Menino Desce O Morro
DR13 -3.03 dB -20.03 dB 4:09 10-Da-me
DR13 -3.83 dB -18.95 dB 1:58 11-Amor De Nada
DR13 -3.00 dB -18.66 dB 2:33 12-A Man And A Woman
--------------------------------------------------------------------------------

Number of tracks: 12
Official DR value: DR12

CD

https://www.amazon.com/Cheganca-Walter-Wanderley-Trio/dp/B00158V2C6
 

maty

Active Member
Joined
Dec 12, 2017
Messages
184
Likes
35
Location
Tarragona (Spain)
James Taylor - Mud Slide Slim And The Blue Horizon (1971), Vinyl, 1977 Warner, Japan

https://www.discogs.com/James-Taylor-Mud-Slide-Slim-And-The-Blue-Horizon/release/3923704



DR Peak RMS Filename
----------------------------------------------------------------------------------------------

DR12 -2.16 dB -18.67 dB 01 Love Has Brought Me Around
DR13 -3.53 dB -20.14 dB 02 You've Got a Friend
DR13 -1.99 dB -19.08 dB 03 Places in My Past
DR13 -3.19 dB -19.42 dB 04 Riding on a Railroad
DR13 -4.50 dB -20.05 dB 05 Soldiers
DR13 -2.16 dB -18.07 dB 06 Mud Slide Slim
DR13 -2.64 dB -18.51 dB 07 Hey Mister, That's Me up on the Jukebox
DR14 -4.08 dB -21.90 dB 08 You Can Close Your Eyes
DR13 -2.53 dB -18.87 dB 09 Machine Gun Kelly
DR14 -2.31 dB -19.88 dB 10 Long Ago and Far Away
DR13 -0.72 dB -16.26 dB 11 Let Me Ride
DR13 -2.52 dB -20.50 dB 12 Highway Song
DR12 -6.43 dB -22.78 dB 13 Isn't It Nice to Be Home Again
----------------------------------------------------------------------------------------------

Number of Files: 13
Official DR Value: DR13

CD

https://www.amazon.com/Mud-Slide-Slim-Blue-Horizon/dp/B000002KDM
 

maty

Active Member
Joined
Dec 12, 2017
Messages
184
Likes
35
Location
Tarragona (Spain)
Françoise Hardy - Soleil (1970), Vinyl, Hispavox, Spain

https://www.discogs.com/es/Françoise-Hardy-Soleil/release/3644195

Françoise-Hardy-Soleil-spanish-cover.jpg


DR Peak RMS Duration Track
--------------------------------------------------------------------------------
DR10 -0.48 dB -13.45 dB 3:44 01-Soleil
DR10 -2.05 dB -15.22 dB 2:26 02-Mon Amour Adieu
DR10 -0.69 dB -13.46 dB 2:21 03-San Salvador
DR12 0.00 dB -14.38 dB 2:32 04-Comment Te Dire Adieu
DR10 -0.91 dB -13.71 dB 2:21 05-Il N'y A Pas D'Amour Heureux
DR11 -1.82 dB -15.88 dB 2:29 06-Des Ronds Dans L'Eau
DR10 -0.99 dB -14.96 dB 3:11 07-Ma Jeunesse Fout Le Camp
DR10 -1.81 dB -15.03 dB 3:11 08-Suzanne
DR11 -0.79 dB -13.39 dB 2:05 09-J'ai Coupé Le Téléphone
DR10 -0.01 dB -13.56 dB 3:16 10-Oú Va La Chance
DR9 -2.53 dB -14.00 dB 2:02 11-C'Etait Charmant
DR11 -0.76 dB -14.04 dB 2:57 12-Je Fais Puzzles
--------------------------------------------------------------------------------

Number of tracks: 12
Official DR value: DR10

CD

https://www.amazon.com/Soleil-Francoise-Hardy/dp/B00004V82I
 

maty

Active Member
Joined
Dec 12, 2017
Messages
184
Likes
35
Location
Tarragona (Spain)
Stan Getz Meets Gerry Mulligan - Getz Meets Mulligan In Hi-FI (1958), Vinyl, mono, Verve, US

https://www.discogs.com/Stan-Getz-Meets-Gerry-Mulligan-Getz-Meets-Mulligan-In-Hi-FI/release/11830505



DR Peak RMS Duration Track
--------------------------------------------------------------------------------
DR12 -1.65 dB -15.70 dB 6:32 01-Let's Fall In Love
DR12 -1.00 dB -16.11 dB 3:39 02-Anything Goes
DR12 -1.73 dB -16.54 dB 6:59 03-Too Close For Comfort
DR12 -1.00 dB -15.64 dB 5:58 04-That Old Feeling
DR12 -2.10 dB -16.84 dB 8:48 05-This Can't Be Love
DR12 -3.87 dB -18.12 dB 5:43 06-Ballad
--------------------------------------------------------------------------------

Number of tracks: 6
Official DR value: DR12

CD, stereo

https://www.amazon.com/Getz-Meets-Mulligan-Hi-Fi-Gerry/dp/B0000047CI
 

maty

Active Member
Joined
Dec 12, 2017
Messages
184
Likes
35
Location
Tarragona (Spain)
Lole y Manuel - Nuevo Día (1975), Vinyl, Movieplay, Spain

https://www.discogs.com/Lole-Y-Manuel-Nuevo-Día/release/2129476



DR Peak RMS Duration Track
--------------------------------------------------------------------------------
DR14 -0.82 dB -18.06 dB 4:46 ?-A1 Nuevo Día
DR13 -1.30 dB -17.00 dB 4:14 ?-A2 Tangos Canasteros
DR14 -0.02 dB -18.83 dB 4:13 ?-A3 Bulerías De La Luna
DR13 -1.53 dB -18.19 dB 3:30 ?-A4 Un Cuento Para Mi Niño
DR15 0.00 dB -18.06 dB 5:03 ?-A5 La Plazuela Y El Tardón
DR15 0.00 dB -18.01 dB 3:42 ?-B1 El Río De Mi Sevilla
DR14 -1.88 dB -19.86 dB 4:43 ?-B2 Todo Es De Color
DR15 -0.29 dB -19.26 dB 4:22 ?-B3 Por Primera Vez
DR15 -1.49 dB -19.57 dB 3:51 ?-B4 Con Hojas De Menta
DR14 -1.65 dB -18.10 dB 4:10 ?-B5 Sangre Gitana Y Mora
--------------------------------------------------------------------------------

Number of tracks: 10
Official DR value: DR14

CD

https://www.amazon.es/Nuevo-Dia-Lole-Y-Manuel/dp/B000LZ5I0Q

Note: one of the best flamenco records
 

maty

Active Member
Joined
Dec 12, 2017
Messages
184
Likes
35
Location
Tarragona (Spain)
Ismael Serrano - Atrapados en azul (1997), CD, Polydor, Spain

https://www.discogs.com/Ismael-Serrano-Atrapados-En-Azul/release/2734943



DR Peak RMS Duration Track
--------------------------------------------------------------------------------
DR10 0.00 dB -11.93 dB 3:00 01-Papá, cuéntame otra vez
DR11 -0.20 dB -13.23 dB 6:16 02-Vértigo
DR10 -0.02 dB -11.84 dB 4:05 03-¿Dónde estarás?
DR11 0.00 dB -13.39 dB 4:47 04-Caperucita
DR10 -0.18 dB -12.48 dB 3:52 05-Yo quiero ser muy promiscuo
DR11 0.00 dB -13.35 dB 4:18 06-Amo tanto la vida
DR11 -0.08 dB -12.66 dB 5:12 07-La extraña pareja
DR11 -0.10 dB -13.05 dB 4:08 08-El camino de regreso
DR11 -0.16 dB -13.33 dB 3:07 09-México insurgente
DR8 -0.73 dB -11.15 dB 6:12 10-Un muerto encierras
DR10 -0.03 dB -12.31 dB 4:36 11-Atrapados en azul
DR11 -0.23 dB -14.11 dB 3:13 12-Ana
--------------------------------------------------------------------------------

Number of tracks: 12
Official DR value: DR10

Note: one of the best sing author record at nineties in Spain.
 

maty

Active Member
Joined
Dec 12, 2017
Messages
184
Likes
35
Location
Tarragona (Spain)
In Diyaudio.com forums someone has asked me about what is official DR value. I think it is appropriate to reproduce it here the three comments too.



The official DR value (1) is the rounded value of the average of the DR values of the left and right channel (2). The values in (3) and (4) show the peak and rms values for the left and right channel measured in dBFS.
Dynamic Range Meter (foobar2000 plugin) – Blouder.com
 

maty

Active Member
Joined
Dec 12, 2017
Messages
184
Likes
35
Location
Tarragona (Spain)
This morning I have re-rip other CD. With foobar2000, FLAC 0 and 1024 kbps. How to make the best FLAC. Convert, recoder and CD rip.

The Cotton Club (Original Motion Picture Soundtrack) (1984), CD, Geffen, US

The Cotton Club (Original Motion Picture Soundtrack) (CD, Album) | Discogs



The full log:

foobar2000 1.4.1 / Dynamic Range Meter 1.1.1
log date: 2018-12-02 11:43:40

--------------------------------------------------------------------------------
Analyzed: Cab Calloway, Irving Mills / The Cotton Club (1)
Duke Ellington, Bub Miley / The Cotton Club (2)
Duke Ellington, Irving Mills, Albany Bigard / The Cotton Club (3)
Duke Ellington, Irving Mills / The Cotton Club (4-5)
Duke Ellington / The Cotton Club (6-9)
Harold Arlen / The Cotton Club (10)
J. Fred Coots / The Cotton Club (11)
John Barry / The Cotton Club (12)
Mitchell Parrish, Irving Mills / The Cotton Club (13)
Rube Bloom / The Cotton Club (14)
The Depression Hits / The Cotton Club (15)
--------------------------------------------------------------------------------

DR Peak RMS Duration Track
--------------------------------------------------------------------------------
DR15 -1.38 dB -19.49 dB 3:10 11-Minnie The Moocher
DR16 -2.65 dB -21.50 dB 3:22 06-East St. Louis Toodle-O
DR12 -8.23 dB -25.15 dB 3:38 10-Mood Indigo
DR16 -1.71 dB -20.75 dB 3:32 01-The Mooche
DR15 -0.37 dB -19.52 dB 2:48 05-Ring Dem Bells
DR16 -2.84 dB -24.35 dB 3:06 03-Drop Me Off In Harlem
DR12 -1.92 dB -20.98 dB 3:04 04-Creole Love Call
DR14 -1.45 dB -18.92 dB 2:51 09-Cotton Club Stomp #1
DR15 -0.23 dB -18.51 dB 3:43 15-Daybreak Express Medley
DR14 -3.78 dB -21.13 dB 2:21 08-Ill Wind
DR14 -1.45 dB -19.74 dB 1:19 12-Copper Colored Gal
DR11 -8.38 dB -23.49 dB 2:40 13-Dixie Kidnaps Vera
DR15 -0.04 dB -18.87 dB 2:43 02-Cotton Club Stomp #2
DR14 -0.92 dB -19.27 dB 2:03 07-Truckin'
DR14 -2.23 dB -21.34 dB 2:47 14-Best Beats Sandman
--------------------------------------------------------------------------------

Number of tracks: 15
Official DR value: DR14

Samplerate: 44100 Hz
Channels: 2
Bits per sample: 16
Bitrate: 726 kbps
Codec: FLAC
==========================================
 

maty

Active Member
Joined
Dec 12, 2017
Messages
184
Likes
35
Location
Tarragona (Spain)
The full LOG of the vinyl:

The Cotton Club Soundtrack (1984), Vinyl, Geffen, UK

John Barry - The Cotton Club (Original Music Soundtrack) (Vinyl, LP, Album) | Discogs

foobar2000 1.4.1 / Dynamic Range Meter 1.1.1
log date: 2018-12-02 12:07:03

--------------------------------------------------------------------------------
Analyzed: John Barry / The Cotton Club (Geffen GEF 70260)
--------------------------------------------------------------------------------

DR Peak RMS Duration Track
--------------------------------------------------------------------------------
DR15 -0.96 dB -19.17 dB 3:32 01-The Mooche (1928)
DR15 -0.11 dB -17.82 dB 2:41 02-Cotton Club Stomp #2 (1930)
DR15 -3.34 dB -23.99 dB 3:04 03-Drop Me Off In Harlem (1933)
DR11 -1.37 dB -20.27 dB 3:02 04-Creole Love Call (1928)
DR14 -0.77 dB -18.56 dB 2:46 05-Ring Dem Bells (1930)
DR15 -2.20 dB -20.92 dB 3:21 06-East St. Louis Toodle-O (1927)
DR13 -2.90 dB -18.85 dB 2:02 07-Truckin' (1935)
DR14 -7.13 dB -24.05 dB 2:20 08-Ill Wind (1934)
DR14 -3.34 dB -21.25 dB 2:51 09-Cotton Club Stomp #1 (1929)
DR12 -10.08 dB -27.06 dB 3:36 10-Mood Indigo (1931)
DR14 -3.67 dB -21.43 dB 3:08 11-Minnie The Moocher (1931)
DR13 -4.30 dB -20.94 dB 1:18 12-Copper Colored Gal (1936)
DR10 -9.07 dB -23.64 dB 2:37 13-Dixie Kidnaps Vera
DR13 -4.18 dB -21.82 dB 2:44 14-The Depression Hits/Best Beats Sandman
DR14 -4.03 dB -21.44 dB 3:44 15-Daybreak Express Medley (1934)
--------------------------------------------------------------------------------

Number of tracks: 15
Official DR value: DR14

Samplerate: 96000 Hz
Channels: 2
Bits per sample: 24
Bitrate: 2816 kbps
Codec: FLAC
==============================================
 
Top Bottom